Download mp3 | 2. sezon 8. Bölüm | - Steins Gate 0 S01E12 DUBBED XviD-AFGWatch Movie | Ovwrestling | Колония / Colony [03x01-10 из 13] (2018) WEB-DL 720p | Jaskier

Seventh Son (2014) 1080p 10bit BluRay x2 Torrent Free Download

Seeders : 403   &   Leechers : 801      05-07-2018 (1 day)
Seventh Son (2014) 1080p 10bit BluRay x2 Torrent Download
Added: ago by McuDudeS ***** in Movies   3.6 GB   Hits : 16
Info Hash: 9FD59A8BEC1D4C4D1B172FF151206107D81DE311 Download
Seventh Son (2014) 1080p 10bit BluRay x2 Torrent Download

Anonymous and Direct Download movies , software , shows...

Fast Safe Anonymous
movies, software, shows...
Seventh Son
Action /Adventure /Fantasy  .   102 min   5.5/10
Director : Sergei Bodrov  
Tags: Seventh  Son  (2014)  1080p  10bit  BluRay  

Released:
06 Feb 2015
John Gregory, who is a seventh son of a seventh son and also the local spook, has protected his country from witches, boggarts, ghouls and all manner of things that go bump in the night. However John is not young anymore, and has been seeking an apprentice to carry.... See More on his trade. Most have failed to survive. The last hope is a young farmer's son named Thomas Ward. Will he survive the training to become the spook that so many others couldn't? Should he trust the girl with pointy shoes? How can Thomas stand a chance against Mother Malkin, the most dangerous witch in the county?

Torrent Description






Visit MoviesMB.Com
Visit Downloadhub.Icu




Seventh Son (2014) 1080p 10bit BluRay x265 Dual Audio [Hindi DTS 5.1 - Eng DD 5.1] - Msubs ~ {RoCK-HD-STAr}







Code:


General
Complete name                            : Seventh Son (2014) 1080p 10bit BluRay x265 Dual Audio [Hindi DTS 5.1 - Eng DD 5.1] - Msubs ~ {RoCK-HD-STAr}.mkv
Format                                   : Matroska
Format version                           : Version 4 / Version 2
File size                                : 3.43 GiB
Duration                                 : 1 h 41 min
Overall bit rate                         : 4 821 kb/s
Movie name                               : Seventh Son (2014) 1080p BluRay x264 Dual Audio [Hindi DTS 5.1 - Eng DD 5.1] - Msubs ~ For More.. The King Of Entertainment -{RoCK-HD-STAr}


Video
ID                                       : 1
Format                                   : HEVC
Format/Info                              : High Efficiency Video Coding
Format profile                           : Main [email protected]@Main
Codec ID                                 : V_MPEGH/ISO/HEVC
Duration                                 : 1 h 41 min
Bit rate                                 : 3 653 kb/s
Width                                    : 1 920 pixels
Height                                   : 800 pixels
Display aspect ratio                     : 2.40:1
Frame rate mode                          : Constant
Frame rate                               : 23.976 (24000/1001) FPS
Color space                              : YUV
Chroma subsampling                       : 4:2:0
Bit depth                                : 10 bits
Bits/(Pixel*Frame)                       : 0.099
Stream size                              : 2.60 GiB (76%)
Title                                    : {RoCK-HD-STAr}


Audio #1
ID                                       : 2
Format                                   : DTS
Format/Info                              : Digital Theater Systems
Codec ID                                 : A_DTS
Duration                                 : 1 h 41 min
Bit rate mode                            : Constant
Bit rate                                 : 768 kb/s
Channel(s)                               : 6 channels
Channel positions                        : Front: L C R, Side: L R, LFE
Sampling rate                            : 48.0 kHz
Frame rate                               : 93.750 FPS (512 SPF)
Bit depth                                : 24 bits
Compression mode                         : Lossy
Stream size                              : 560 MiB (16%)
Title                                    : Hindi DTS 5.1 ...{RoCK-HD-STAr}
Language                                 : Hindi
Default                                  : Yes
Forced                                   : No

Audio #2
ID                                       : 3
Format                                   : AC-3
Format/Info                              : Audio Coding 3
Codec ID                                 : A_AC3
Duration                                 : 1 h 41 min
Bit rate mode                            : Constant
Bit rate                                 : 384 kb/s
Channel(s)                               : 6 channels
Channel positions                        : Front: L C R, Side: L R, LFE
Sampling rate                            : 48.0 kHz
Frame rate                               : 31.250 FPS (1536 SPF)
Bit depth                                : 16 bits
Compression mode                         : Lossy
Stream size                              : 280 MiB (8%)
Title                                    : {RoCK-HD-STAr}
Language                                 : English
Service kind                             : Complete Main
Default                                  : No
Forced                                   : No

Text #1
ID                                       : 4
Format                                   : PGS
Muxing mode                              : zlib
Codec ID                                 : S_HDMV/PGS
Codec ID/Info                            : Picture based subtitle format used on BDs/HD-DVDs
Duration                                 : 1 h 32 min
Bit rate                                 : 26.3 kb/s
Count of elements                        : 2258
Stream size                              : 17.4 MiB (0%)
Title                                    : {RoCK-HD-STAr}
Language                                 : English
Default                                  : No
Forced                                   : No

Text #2
ID                                       : 5
Format                                   : PGS
Muxing mode                              : zlib
Codec ID                                 : S_HDMV/PGS
Codec ID/Info                            : Picture based subtitle format used on BDs/HD-DVDs
Duration                                 : 1 h 40 min
Bit rate                                 : 14.9 kb/s
Count of elements                        : 1562
Stream size                              : 10.8 MiB (0%)
Title                                    : {RoCK-HD-STAr}
Language                                 : Hindi
Default                                  : Yes
Forced                                   : No

Menu
00:00:00.000                             : en:00:00:00.000
00:04:50.415                             : en:00:04:50.415
00:10:28.545                             : en:00:10:28.545
00:16:40.583                             : en:00:16:40.583
00:22:40.359                             : en:00:22:40.359
00:27:40.450                             : en:00:27:40.450
00:30:17.691                             : en:00:30:17.691
00:36:45.203                             : en:00:36:45.203
00:42:37.388                             : en:00:42:37.388
00:49:54.742                             : en:00:49:54.742
00:54:45.073                             : en:00:54:45.073
00:57:48.548                             : en:00:57:48.548
01:02:53.144                             : en:01:02:53.144
01:06:53.968                             : en:01:06:53.968
01:11:29.285                             : en:01:11:29.285
01:18:36.921                             : en:01:18:36.921
01:22:10.300                             : en:01:22:10.300
01:25:32.669                             : en:01:25:32.669
01:30:15.035                             : en:01:30:15.035
01:33:21.095                             : en:01:33:21.095






[img]http://i.imgbox.com/RniIMYcn.gif" class="img-responsive descrimg lazy"/>


[/img]




Sharing Widget


No Comments For This Torrent . Be The First to Comment

You must Login to Comment . Click Here to Login

Menu 1

Some content in menu 1.

Seventh Son (2014) 1080p 10bit BluRay x265 Dual Audio [Hindi DTS 5 1 - (Size: 3.6 GB)
  Seventh Son (2014) 1080p 10bit BluRay x265 Dual Audio [Hindi DTS 5 1 - 3.6 GB
tracker name
udp://tracker.leechers-paradise.org:6969/announce
udp://zer0day.ch:1337/announce
udp://open.demonii.com:1337/announce
udp://tracker.coppersurfer.tk:6969/announce
udp://exodus.desync.com:6969/announce
µTorrent compatible trackers list

Relative Torrents

Torrent Name Size Age SEED LEECH
UFC The Ultimate Fighter 27 Undefeated Fnale 720p HDTV x264-Ebi [TJET]
Posted by    EZZT   in   TV
6.8 GB 31 seconds 335 965
Geordie Shore S17E07 WEB h264-CROSSFIT[Tx]
Posted by    mazemaze16   in   TV
412.6 MB 31 seconds 191 794
Geordie Shore S17E07 720p WEB h264-KLINGN[TGx]
Posted by    mazemaze16   in   TV
785.3 MB 31 seconds 8 325
Geordie Shore S17E06 720p WEB h264-KLINGN[TGx]
Posted by    mazemaze16   in   TV
800.3 MB 31 seconds 600 500
www Torrenting com - Little Big Shots S0E11 1080p HEVC x265-MeGusta
Posted by    iDope   in   TV
1.0 GB 2 minutes 364 189