Marvel's The Defenders - Season 1 (2017) | Télécharger Part 4 | BD Zankyou no Terror Subtitle IndonesiaCorreio da Manhã – 03.01.2018 | Batman Unlimited: Monster Mayhem (2015) | You Were Never Really Here (2017)

Disobedience (2018) 720p HDRip x264 AAC Torrent Free Download

Seeders : 77   &   Leechers : 943      05-07-2018 (14 hours)
Disobedience (2018) 720p HDRip x264 AAC Torrent Download
Added: ago by shmasti ***** in Movies   1.1 GB   Hits : 18
Info Hash: 10304C578890EBF65EBAA64172E7C7EBF33AC0A7 Download
Disobedience (2018) 720p HDRip x264 AAC Torrent Download

Anonymous and Direct Download movies , software , shows...

Fast Safe Anonymous
movies, software, shows...
Disobedience
Drama /Romance  .   114 min   6.8/10
Director : Sebastián Lelio  
Tags: Disobedience  (2018)  720p  HDRip  x264  AAC  

Released:
27 Apr 2018
A woman returns to the community that shunned her for her attraction to a childhood friend. Once back, their passions reignite as they explore the boundaries of faith and sexuality.

Torrent Description





General
Complete name : Disobedience (2018) 720p HDRip x264 AAC by Full4movies.mkv
Format : Matroska
Format version : Version 4 / Version 2
File size : 1.09 GiB
Duration : 1 h 54 min
Overall bit rate : 1 364 kb/s
Encoded date : UTC 2018-07-05 09:00:14
Writing application : mkvmerge v8.1.0 ('Psychedelic Postcard') 32bit
Writing library : libebml v1.3.1 + libmatroska v1.4.2

Video
ID : 1
Format : AVC
Format/Info : Advanced Video Codec
Format profile : [email protected]
Format settings, CABAC : Yes
Format settings, RefFrames : 5 frames
Codec ID : V_MPEG4/ISO/AVC
Duration : 1 h 54 min
Bit rate : 1 152 kb/s
Width : 1 280 pixels
Height : 536 pixels
Display aspect ratio : 2.40:1
Frame rate mode : Constant
Frame rate : 23.976 (23976/1000) FPS
Color space : YUV
Chroma subsampling : 4:2:0
Bit depth : 8 bits
Scan type : Progressive
Bits/(Pixel*Frame) : 0.070
Stream size : 933 MiB (83%)
Writing library : x264 core 148 r2643 5c65704
Default : Yes
Forced : No

Audio
ID : 2
Format : AAC
Format/Info : Advanced Audio Codec
Format profile : LC
Codec ID : A_AAC
Duration : 1 h 54 min
Bit rate : 224 kb/s
Channel(s) : 6 channels
Channel positions : Front: L C R, Side: L R, LFE
Sampling rate : 48.0 kHz
Frame rate : 46.875 FPS (1024 SPF)
Compression mode : Lossy
Delay relative to video : -43 ms
Stream size : 184 MiB (16%)
Language : English
Default : Yes
Forced : No

Screen Shoots




Sharing Widget


No Comments For This Torrent . Be The First to Comment

You must Login to Comment . Click Here to Login

Menu 1

Some content in menu 1.

Disobedience (2018) 720p HDRip x264 AAC by Full4movies (Size: 1.1 GB)
  Disobedience (2018) 720p HDRip x264 AAC by Full4movies 1.1 GB
tracker name
udp://tracker.leechers-paradise.org:6969/announce
udp://zer0day.ch:1337/announce
udp://open.demonii.com:1337/announce
udp://tracker.coppersurfer.tk:6969/announce
udp://exodus.desync.com:6969/announce
µTorrent compatible trackers list

Relative Torrents

Torrent Name Size Age SEED LEECH
Sagi Rei - Emotional Songs (2018)
Posted by    iDope   in   Apps
10.4 MB 7 minutes 317 545
[Glenn] Hibike! Euphonium - Todoketai Meody (BD 1920x1080 x264 FLAC) [406A76F6]
Posted by    iDope   in   Video
6.3 GB 7 minutes 525 185
WWE Main Event 2018 07 06 720p HDTV x264Ebi[TGx]
Posted by    mazemaze16   in   TV
1.4 GB 11 minutes 457 994
WWE Main Event 2018 07 06 HDTV x264-Ebi[Gx]
Posted by    mazemaze16   in   TV
446.0 MB 11 minutes 466 168
Solo A Star Wars Story (2018) [BluRay] [080p] English
Posted by    iDope   in   Movies
759.9 MB 13 minutes 948 176