Tata wie co robi, synek ma to już ograne | Power Rangers | Dua LipaСексология. Взаимоотношения полов | Elementary – Saison 5 | Télécharger Part 2

Ant-Man and the Wasp 2018 TS 720p Russia Torrent Free Download

Seeders : 935   &   Leechers : 456      05-07-2018 (1 day)
Ant-Man and the Wasp 2018 TS 720p Russia Torrent Download
Added: ago by CrazzyBoy ***** in Movies   1.4 GB   Hits : 23
Info Hash: C1A92B6183C31D4B82310ECD430C892F1BBB5B6C Download
Ant-Man and the Wasp 2018 TS 720p Russia Torrent Download

Anonymous and Direct Download movies , software , shows...

Fast Safe Anonymous
movies, software, shows...

Torrent Description



Quote:


Ant-Man and the Wasp 2018 TS 720p Russian x264 1.4GB [CraZzyBoY]

Seed Will Be Slow Visit Our Site For Instant Download
Visit & Support www.MoviezAddiction.website





Ant-Man and the Wasp 2018 TS 720p Russian x264 1.4GB [CraZzyBoY]




Take It Or Leave It
Like Our Work Just leave Only 1 Valuable Comment
Keep Visit and Support http://moviezaddiction.website


General

Format : Matroska
Format version : Version 4 / Version 2
File size : 1.44 GiB
Duration : 1 h 45 min
Overall bit rate : 1 953 kb/s
Movie name : ::::www.MoviezAddiction.website::::
Encoded date : UTC 2018-07-05 11:30:03
Writing application : mkvmerge v12.0.0 ('Trust / Lust') 64bit
Writing library : libebml v1.3.4 + libmatroska v1.4.5

Video
ID : 1
Format : AVC
Format/Info : Advanced Video Codec
Format profile : [email protected]
Format settings : CABAC / 4 Ref Frames
Format settings, CABAC : Yes
Format settings, ReFrames : 4 frames
Codec ID : V_MPEG4/ISO/AVC
Duration : 1 h 45 min
Bit rate : 1 822 kb/s
Width : 1 280 pixels
Height : 528 pixels
Display aspect ratio : 2.40:1
Frame rate mode : Constant
Frame rate : 23.976 (24000/1001) FPS
Color space : YUV
Chroma subsampling : 4:2:0
Bit depth : 8 bits
Scan type : Progressive
Bits/(Pixel*Frame) : 0.112
Stream size : 1.34 GiB (93%)
Title : ::::www.MoviezAddiction.website::::
Writing library : x264 core 132
Default : Yes
Forced : No

Audio
ID : 2
Format : AAC
Format/Info : Advanced Audio Codec
Format profile : LC
Codec ID : A_AAC-2
Duration : 1 h 45 min
Bit rate : 128 kb/s
Channel(s) : 2 channels
Channel positions : Front: L R
Sampling rate : 48.0 kHz
Frame rate : 46.875 FPS (1024 SPF)
Compression mode : Lossy
Stream size : 96.6 MiB (7%)
Title : ::::www.MoviezAddiction.website::::
Language : Russian
Default : Yes
Forced : No


In the aftermath of 'Captain America: Civil War,' Scott Lang grapples with the consequences of his choices as both a Super Hero and a father. As he struggles to re-balance his home life with his responsibilities as Ant-Man, he's confronted by Hope van Dyne and Dr. Hank Pym with an urgent new mission. Scott must once again put on the suit and learn to fight alongside The Wasp as the team works together to uncover secrets from their past.














Sharing Widget


No Comments For This Torrent . Be The First to Comment

You must Login to Comment . Click Here to Login

Menu 1

Some content in menu 1.

Ant-Man and the Wasp 2018 TS 720p Russian x264 1 4GB [CraZzyBoY] (Size: 1.4 GB)
  Ant-Man and the Wasp 2018 TS 720p Russian x264 1 4GB [CraZzyBoY] 1.4 GB
tracker name
udp://tracker.leechers-paradise.org:6969/announce
udp://zer0day.ch:1337/announce
udp://open.demonii.com:1337/announce
udp://tracker.coppersurfer.tk:6969/announce
udp://exodus.desync.com:6969/announce
µTorrent compatible trackers list

Relative Torrents

Torrent Name Size Age SEED LEECH
UFC The Ultimate Fighter 27 Undefeated Fnale 720p HDTV x264-Ebi [TJET]
Posted by    EZZT   in   TV
6.8 GB 3 minutes 335 965
Geordie Shore S17E07 WEB h264-CROSSFIT[Tx]
Posted by    mazemaze16   in   TV
412.6 MB 3 minutes 191 794
Geordie Shore S17E07 720p WEB h264-KLINGN[TGx]
Posted by    mazemaze16   in   TV
785.3 MB 3 minutes 8 325
Geordie Shore S17E06 720p WEB h264-KLINGN[TGx]
Posted by    mazemaze16   in   TV
800.3 MB 3 minutes 600 500
www Torrenting com - Little Big Shots S0E11 1080p HEVC x265-MeGusta
Posted by    iDope   in   TV
1.0 GB 5 minutes 364 189