LINE - общаемся бесплатно! | Реклама | Hotel Transilvânia 3: Férias Monstruosas Assistir Hotel Transilvânia 3: Férias Monstruosas 720p Dublado/Legendado Online Agora que Dennis, o neto de Drácula, é um completo vampiro, as coisas não poderiam estar melhores no Hotel transilvânia. Quando um milionário ganancioso ameaça destruir a propriedade para construir um resort, a família de Dráculo e os monstros precisam se unir para certificar que ele nunca complete os seus planos. Ver filme ...Nagrali kawałek wykorzystując efekt opóźnienia przy transmisji na żywo | Watch movie | God of Martial Arts: chapter 2.3

Africa's Great Civilisations S01E03 Empi Torrent Free Download

Seeders : 279   &   Leechers : 932      30-06-2018 (1 week)
Africa's Great Civilisations S01E03 Empi Torrent Download
Added: ago by ElsonRoa ***** in TV   2.0 GB   Hits : 25
Info Hash: 8403AD0453EC4584D1059EEC9356DB0E9876028C Download
Africa's Great Civilisations S01E03 Empi Torrent Download

Anonymous and Direct Download movies , software , shows...

Fast Safe Anonymous
movies, software, shows...

Torrent Description



Africa's Great Civilisations S01E03 Empires of Gold (1280x720p HD, 50fps, soft Eng subs)

Empires of Gold marks an era of great commercial and manufacturing growth throughout several of the continent's regions. Beginning with the revolutionary transformation of north and west Africa, Gates travels to the shores of the Sahara Desert, where farmers, traders, warriors and nomads have turned the region into the crossroads of some of history's most advanced and wealthiest civilisations.

First broadcast: 12 June 2018
Duration: 1 hour



Media info:-
General
Format : MPEG-4
Format profile : Base Media
Codec ID : isom (isom/iso2/avc1/mp41)
File size : 1.97 GiB
Duration : 52mn 26s
Overall bit rate mode : Variable
Overall bit rate : 5 365 Kbps
Writing application : Lavf57.83.100

Video
ID : 1
Format : AVC
Format/Info : Advanced Video Codec
Format profile : [email protected]
Format settings, CABAC : Yes
Format settings, ReFrames : 4 frames
Codec ID : avc1
Codec ID/Info : Advanced Video Coding
Duration : 52mn 26s
Bit rate : 5 040 Kbps
Width : 1 280 pixels
Height : 720 pixels
Display aspect ratio : 16:9
Frame rate mode : Constant
Frame rate : 50.000 fps
Color space : YUV
Chroma subsampling : 4:2:0
Bit depth : 8 bits
Scan type : Progressive
Bits/(Pixel*Frame) : 0.109
Stream size : 1.85 GiB (94%)
Encoded date : UTC 1904-01-01 00:00:00
Tagged date : UTC 1904-01-01 00:00:00
Color range : Limited
Color primaries : BT.709
Transfer characteristics : BT.709
Matrix coefficients : BT.709

Audio
ID : 2
Format : AAC
Format/Info : Advanced Audio Codec
Format profile : LC
Codec ID : 40
Duration : 52mn 25s
Bit rate mode : Variable
Bit rate : 317 Kbps
Maximum bit rate : 405 Kbps
Channel(s) : 2 channels
Channel positions : Front: L R
Sampling rate : 48.0 KHz
Frame rate : 46.875 fps (1024 spf)
Compression mode : Lossy
Stream size : 119 MiB (6%)
Language : English





Sharing Widget


No Comments For This Torrent . Be The First to Comment

You must Login to Comment . Click Here to Login

Menu 1

Some content in menu 1.

Africa's Great Civilisations S01E03 Empires of Gold (1280x720p HD, 50f (Size: 2.0 GB)
  Africa's Great Civilisations S01E03 Empires of Gold (1280x720p HD, 50f 2.0 GB
tracker name
udp://tracker.leechers-paradise.org:6969/announce
udp://zer0day.ch:1337/announce
udp://open.demonii.com:1337/announce
udp://tracker.coppersurfer.tk:6969/announce
udp://exodus.desync.com:6969/announce
µTorrent compatible trackers list

Relative Torrents

Torrent Name Size Age SEED LEECH
Shades of Blue s03 HD1080p WEBRip Rus En BaibaKo tv
Posted by    iDope   in   TV
10.5 GB 52 seconds 789 248
Microsoft Windows 10 PRO FULL (x64-x86) ep 2018 [TechTools]
Posted by    iDope   in   Apps
39.2 MB 12 minutes 957 447
www Torrenting com - Comedians in Cars Gtting Coffee S02E01 XviD-AFG
Posted by    iDope   in   TV
432.2 MB 30 minutes 791 268
The Shiver Of The Vampires 1971 THEATRICL BDRiP x264-CREEPSHOW
Posted by    Trige   in   Movies
1.1 GB 42 minutes 512 967
Sinderella - My Boyfriend Is Out Of Town1280x720 mp4
Posted by    iDope   in   Video
1.9 GB 54 minutes 653 726