Il pane del ritorno | محمد صديق المنشاوي | The Fast and the Furious: Tokyo Drift (2006)All Categories | Facebook | Mira Grant - Newsflesh 1 - Feed

18+ West Of Hell 2018 UNCENSORED Movies Torrent Free Download

Seeders : 785   &   Leechers : 730      05-07-2018 (1 day)
18+ West Of Hell 2018 UNCENSORED Movies Torrent Download
Added: ago by nehalpuja ***** in Movies   1.1 GB   Hits : 20
Info Hash: 02836C57A0E12FF840E8DD28608C7458BE26C890 Download
18+ West Of Hell 2018 UNCENSORED Movies Torrent Download

Anonymous and Direct Download movies , software , shows...

Fast Safe Anonymous
movies, software, shows...

Torrent Description



18+ West Of Hell 2018 UNCENSORED Movies 720p BluRay x264 5.1 with Sample ☻rDX☻
===============================================================================================

SCREEN SHOTS:



or

http://iphonehosting.eu/2018/7/free/1.html

File size : 1.09 GiB
Duration : 1 h 20 min
Overall bit rate : 1 948 kb/s
Movie name : 18+ West Of Hell 2018 UNCENSORED Movies 720p BluRay x264 5.1 ☻rDX☻

Video
ID : 2
Format : AVC
Format/Info : Advanced Video Codec
Format profile : [email protected]
Format settings, CABAC : Yes
Format settings, ReFrames : 4 frames
Codec ID : V_MPEG4/ISO/AVC
Duration : 1 h 20 min
Bit rate : 1 500 kb/s
Width : 1 280 pixels
Height : 536 pixels
Display aspect ratio : 2.40:1
Frame rate mode : Constant
Frame rate : 23.976 (23976/1000) FPS
Color space : YUV
Chroma subsampling : 4:2:0
Bit depth : 8 bits
Scan type : Progressive
Bits/(Pixel*Frame) : 0.091
Stream size : 837 MiB (75%)
Title : ☻rDX☻
Writing library : x264

Audio
ID : 1
Format : AC-3
Format/Info : Audio Coding 3
Mode extension : CM (complete main)
Format settings, Endianness : Big
Codec ID : A_AC3
Duration : 1 h 20 min
Bit rate mode : Constant
Bit rate : 448 kb/s
Channel(s) : 6 channels
Channel positions : Front: L C R, Side: L R, LFE
Sampling rate : 48.0 kHz
Frame rate : 31.250 FPS (1536 spf)
Bit depth : 16 bits
Compression mode : Lossy
Delay relative to video : -43 ms
Stream size : 257 MiB (23%)
Title : ☻rDX☻
Default : Yes
Forced : No



IMDB : http://www.imdb.com/title/tt4287470




Sharing Widget


No Comments For This Torrent . Be The First to Comment

You must Login to Comment . Click Here to Login

Menu 1

Some content in menu 1.

18+ West Of Hell 2018 UNCENSORED Movies 720p BluRay x264 5 1 with Samp (Size: 1.1 GB)
  18+ West Of Hell 2018 UNCENSORED Movies 720p BluRay x264 5 1 with Samp 1.1 GB
tracker name
udp://tracker.leechers-paradise.org:6969/announce
udp://zer0day.ch:1337/announce
udp://open.demonii.com:1337/announce
udp://tracker.coppersurfer.tk:6969/announce
udp://exodus.desync.com:6969/announce
µTorrent compatible trackers list

Relative Torrents

Torrent Name Size Age SEED LEECH
UFC The Ultimate Fighter 27 Undefeated Fnale 720p HDTV x264-Ebi [TJET]
Posted by    EZZT   in   TV
6.8 GB 30 seconds 335 965
Geordie Shore S17E07 WEB h264-CROSSFIT[Tx]
Posted by    mazemaze16   in   TV
412.6 MB 30 seconds 191 794
Geordie Shore S17E07 720p WEB h264-KLINGN[TGx]
Posted by    mazemaze16   in   TV
785.3 MB 30 seconds 8 325
Geordie Shore S17E06 720p WEB h264-KLINGN[TGx]
Posted by    mazemaze16   in   TV
800.3 MB 30 seconds 600 500
www Torrenting com - Little Big Shots S0E11 1080p HEVC x265-MeGusta
Posted by    iDope   in   TV
1.0 GB 2 minutes 364 189