Dream Lovers (1986) | Deadpool (2016) 1080p BluRay x264 [Dual-Audio] [English DD 5.1 + Hindi DD 5.1] - NicK | WWE DVD Andre The GiantTélécharger Part 4 | BD Zankyou no Terror Subtitle Indonesia | Chapter 508 : This one's lost too

12 Monkeys S04E08 Demons REPACK 1080p 5 Torrent Free Download

Seeders : 36   &   Leechers : 664      05-07-2018 (1 hour)
12 Monkeys S04E08 Demons REPACK 1080p 5 Torrent Download
Added: ago by PhunPsyz ***** in TV   817.7 MB   Hits : 12
Info Hash: 20A7A5089302E4EA03184C3D1C1BE8DAE2A412BC Download
12 Monkeys S04E08 Demons REPACK 1080p 5 Torrent Download

Anonymous and Direct Download movies , software , shows...

Fast Safe Anonymous
movies, software, shows...

Torrent Description



www.imdb.com/title/tt7067014/?ref_=ttep_ep8

Everything changes when the team finally climbs the steps and rings the bell in the Middle Ages.

Source: NTG (Amzn) (2.47 GiB)

REPACKed to modify settings due to source size



Format : MPEG-4
Format profile : Base Media / Version 2
Codec ID : mp42 (isom/iso2/avc1/mp41)
File size : 818 MiB
Duration : 43 min 8 s
Overall bit rate mode : Variable
Overall bit rate : 2 650 kb/s

Video
ID : 1
Format : AVC
Format/Info : Advanced Video Codec
Format profile : [email protected]
Format settings : CABAC / 8 Ref Frames
Format settings, CABAC : Yes
Format settings, RefFrames : 8 frames
Codec ID : avc1
Codec ID/Info : Advanced Video Coding
Duration : 43 min 8 s
Bit rate : 2 162 kb/s
Width : 1 920 pixels
Height : 1 080 pixels
Display aspect ratio : 16:9
Frame rate mode : Variable
Frame rate : 23.976 (24000/1001) FPS
Minimum frame rate : 23.974 FPS
Maximum frame rate : 23.981 FPS
Color space : YUV
Chroma subsampling : 4:2:0
Bit depth : 8 bits
Scan type : Progressive
Bits/(Pixel*Frame) : 0.043
Stream size : 667 MiB (82%)
Writing library : x264 core 155 r2901 7d0ff22

Audio #1
ID : 2
Format : AC-3
Format/Info : Audio Coding 3
Format settings, Endianness : Big
Codec ID : ac-3
Duration : 43 min 8 s
Bit rate mode : Constant
Bit rate : 320 kb/s
Channel(s) : 6 channels
Channel positions : Front: L C R, Side: L R, LFE
Sampling rate : 48.0 kHz
Frame rate : 31.250 FPS (1536 SPF)
Bit depth : 16 bits
Compression mode : Lossy
Stream size : 98.7 MiB (12%)
Title : Surround / Surround
Language : English
Service kind : Complete Main

Audio #2
ID : 3
Format : AAC
Format/Info : Advanced Audio Codec
Format profile : LC
Codec ID : mp4a-40-2
Duration : 43 min 8 s
Bit rate mode : Variable
Bit rate : 160 kb/s
Channel(s) : 2 channels
Channel positions : Front: L R
Sampling rate : 48.0 kHz
Frame rate : 46.875 FPS (1024 SPF)
Compression mode : Lossy
Stream size : 49.4 MiB (6%)
Title : Stereo / Stereo
Language : English

Text
Language : English
Default : Yes
Forced : No




Sharing Widget


No Comments For This Torrent . Be The First to Comment

You must Login to Comment . Click Here to Login

Menu 1

Some content in menu 1.

12 Monkeys S04E08 Demons REPACK 1080p 5 1 - 2 0 x264 Phun Psyz (Size: 817.7 MB)
  12 Monkeys S04E08 Demons REPACK 1080p 5 1 - 2 0 x264 Phun Psyz 817.7 MB
tracker name
udp://tracker.leechers-paradise.org:6969/announce
udp://zer0day.ch:1337/announce
udp://open.demonii.com:1337/announce
udp://tracker.coppersurfer.tk:6969/announce
udp://exodus.desync.com:6969/announce
µTorrent compatible trackers list

Relative Torrents

Torrent Name Size Age SEED LEECH
Vodka Diaries (2018) Hindi 720p HDRip x24 [www moviezaddiction website]
Posted by    kinayufrvr   in   Movies
881.9 MB 3 seconds 189 134
113841_3xplanet_10musume_070318_01 mp4
Posted by    iDope   in   Video
1.9 GB 3 minutes 494 626
[4K] 플래쉬(Flashe) - 베이비로션BabyLotion) MV
Posted by    iDope   in   Video
519.4 MB 3 minutes 604 457
Higher Power 2018 BRRip XviD AC3-XVID
Posted by    iDope   in   Movies
1.3 GB 3 minutes 138 589
4205CaseyCalvertCaseyCalvertsDoublePenetationSuspension
Posted by    iDope   in   Video
715.0 MB 3 minutes 123 290